<?xml version="1.0" standalone="no"?>
<!DOCTYPE svg PUBLIC "-//W3C//DTD SVG 1.1//EN" "http://www.w3.org/Graphics/SVG/1.1/DTD/svg11.dtd" >
<svg xmlns="http://www.w3.org/2000/svg">
<metadata>Generated by IcoMoon</metadata>
<defs>
<font id="FSB-Icon-Font" horiz-adv-x="1024">
<font-face units-per-em="1024" ascent="960" descent="-64" />
<missing-glyph horiz-adv-x="1024" />
<glyph unicode="&#x20;" horiz-adv-x="512" d="" />
<glyph unicode="&#xe900;" glyph-name="arrow-angle-down" d="M864 544l-352-352-352 352 96 96 256-256 256 256z" />
<glyph unicode="&#xe901;" glyph-name="arrow-angle-left" d="M608 96l-352 352 352 352 96-96-256-256 256-256z" />
<glyph unicode="&#xe902;" glyph-name="arrow-angle-right" d="M416 800l352-352-352-352-96 96 256 256-256 256z" />
<glyph unicode="&#xe903;" glyph-name="arrow-angle-up" d="M160 352l352 352 352-352-96-96-256 256-256-256z" />
<glyph unicode="&#xe904;" glyph-name="arrow-down" d="M864 576l-352-352-352 352z" />
<glyph unicode="&#xe905;" glyph-name="arrow-fsb-down" d="M864 544h-128.028l-223.972-223.972-223.972 223.972h-128.028l352-352z" />
<glyph unicode="&#xe906;" glyph-name="arrow-fsb-left" d="M608 96v128.028l-223.972 223.972 223.972 223.972v128.028l-352-352z" />
<glyph unicode="&#xe907;" glyph-name="arrow-fsb-right" d="M416 800v-128.028l223.972-223.972-223.972-223.972v-128.028l352 352z" />
<glyph unicode="&#xe908;" glyph-name="arrow-fsb-up" d="M160 352h128.028l223.972 223.972 223.972-223.972h128.028l-352 352z" />
<glyph unicode="&#xe909;" glyph-name="arrow-left" d="M640 96l-352 352 352 352z" />
<glyph unicode="&#xe90a;" glyph-name="arrow-right" d="M384 800l352-352-352-352z" />
<glyph unicode="&#xe90b;" glyph-name="arrow-up" d="M160 320l352 352 352-352z" />
<glyph unicode="&#xe90c;" glyph-name="chat" d="M396.4 65c-4 0-8 0.8-11.6 2.4-10.4 4.6-17.2 15-17.2 26.4v118l-3.6 0.4h-0.2c-164.4 0-299.8 135.4-299.8 302 0 168.8 141.8 316.6 303.4 316.6h289c161.6 0 303.4-148 303.4-316.6 0-168-136.2-304.8-303.4-304.8h-90l-150.6-137c-5.4-4.8-12.4-7.4-19.4-7.4zM367.4 773.2c-130.8 0-245.6-121-245.6-258.8 0-134.8 109.6-244.4 244.4-244.4l32.6-2.6c15-1.2 26.6-13.8 26.6-28.8v-79.2l110.6 100.6c5.4 4.8 12.2 7.6 19.4 7.6h101.2c133.2 0 245.6 113 245.6 247 0 138-114.8 258.8-245.6 258.8l-289.2-0.2z" />
<glyph unicode="&#xe90d;" glyph-name="checkmark" d="M242.2 526.8l-82.2-82.2 288-288 512 512-82.2 82.2-429.8-429.8z" />
<glyph unicode="&#xe90e;" glyph-name="circ-checkmark" d="M512 832c102.57 0 199.002-39.944 271.53-112.47 72.526-72.53 112.47-168.96 112.47-271.53s-39.944-199.002-112.47-271.53-168.96-112.47-271.53-112.47-199 39.944-271.53 112.47c-72.526 72.528-112.47 168.96-112.47 271.53s39.944 199 112.47 271.53c72.53 72.526 168.96 112.47 271.53 112.47zM512 896c-247.424 0-448-200.576-448-448s200.576-448 448-448 448 200.576 448 448-200.576 448-448 448v0zM767.458 575.776l-56.44 56.44-263.338-263.34-135.782 135.782-56.44-56.44 192.222-192.218 319.778 319.776z" />
<glyph unicode="&#xe90f;" glyph-name="circ-minus" d="M512 896c-247.4 0-448-200.6-448-448s200.6-448 448-448 448 200.6 448 448-200.6 448-448 448zM783.6 176.4c-72.6-72.4-169-112.4-271.6-112.4s-199 40-271.6 112.4c-72.4 72.6-112.4 169-112.4 271.6s40 199 112.4 271.6c72.6 72.4 169 112.4 271.6 112.4s199-40 271.6-112.4c72.4-72.6 112.4-169 112.4-271.6s-40-199-112.4-271.6zM320 480h384v-64h-384v64z" />
<glyph unicode="&#xe910;" glyph-name="circ-plus" d="M512 896c-247.4 0-448-200.6-448-448s200.6-448 448-448 448 200.6 448 448-200.6 448-448 448zM783.6 176.4c-72.6-72.4-169-112.4-271.6-112.4s-199 40-271.6 112.4c-72.4 72.6-112.4 169-112.4 271.6s40 199 112.4 271.6c72.6 72.4 169 112.4 271.6 112.4s199-40 271.6-112.4c72.4-72.6 112.4-169 112.4-271.6s-40-199-112.4-271.6zM544 480h160v-64h-160v-160h-64v160h-160v64h160v160h64v-160z" />
<glyph unicode="&#xe911;" glyph-name="circ-x" d="M512 896c-247.4 0-448-200.6-448-448s200.6-448 448-448 448 200.6 448 448-200.6 448-448 448zM783.6 176.4c-72.6-72.4-169-112.4-271.6-112.4s-199 40-271.6 112.4c-72.4 72.6-112.4 169-112.4 271.6s40 199 112.4 271.6c72.6 72.4 169 112.4 271.6 112.4s199-40 271.6-112.4c72.4-72.6 112.4-169 112.4-271.6s-40-199-112.4-271.6zM557.2 448l113.2-113.2-45.2-45.2-113.2 113.2-113.2-113.2-45.2 45.2 113.2 113.2-113.2 113.2 45.2 45.2 113.2-113.2 113.2 113.2 45.2-45.2-113.2-113.2z" />
<glyph unicode="&#xe912;" glyph-name="close-x" d="M832 234.8l-106.8-106.8-213.2 213.6-213.2-213.6-106.8 106.8 213.6 213.2-213.6 213.2 106.8 106.8 213.2-213.6 213.2 213.6 106.8-106.8-213.6-213.2z" />
<glyph unicode="&#xe913;" glyph-name="contact" d="M512 896c-247 0-448-201-448-448s201-448 448-448c91.4 0 179 27 253.2 78 13.2 9 16.4 27 7.4 40.2s-27 16.4-40.2 7.4c-64.6-44.4-140.8-67.8-220.6-67.8-215.2 0-390.2 175-390.2 390.2s175.2 390.2 390.4 390.2 390.2-175 390.2-390.2v-36.4c0-54.4-44.2-98.6-98.6-98.6s-98.6 44.2-98.6 98.6v36.4c0 106.4-86.6 192.8-193 192.8s-192.8-86.6-192.8-192.8 86.6-192.8 192.8-192.8c63.8 0 120.4 31.4 155.6 79.4 27-47.4 77.8-79.4 136-79.4 86.2 0 156.4 70.2 156.4 156.4v36.4c0 247-201 448-448 448zM512 313c-74.4 0-135 60.6-135 135s60.6 135 135 135c74.6 0 135.2-60.6 135.2-135s-60.8-135-135.2-135z" />
<glyph unicode="&#xe914;" glyph-name="diamond-square" d="M512 960.001l511.996-511.996-511.996-511.996-511.996 511.996 511.996 511.996z" />
<glyph unicode="&#xe915;" glyph-name="email" d="M896 661.4v10.6c0 17.6-14.4 32-32 32h-704c-17.6 0-32-14.4-32-32v-10.6l384.4-189.2 383.6 189.2zM510.2 385.2l-382.2 190.8v-352c0-17.6 14.4-32 32-32h704c17.6 0 32 14.4 32 32v352l-385.8-190.8z" />
<glyph unicode="&#xe916;" glyph-name="file" d="M640.002 848h-448.002v-800h640v607.986l-191.998 192.014zM640.002 757.484l101.484-101.484h-101.484v101.484zM256 111.984v672.016h320v-192h192v-480.016h-512zM320 528h383.998v-32h-383.998v32zM320 432h383.998v-32.002h-383.998v32.002zM320 336.002h383.998v-32.002h-383.998v32.002zM320 239.998h288v-31.998h-288v31.998z" />
<glyph unicode="&#xe917;" glyph-name="info" d="M512.2 838.2c104.2 0 202.2-40.6 276-114.2 152.2-152.2 152.2-399.8 0.2-551.8-73.8-73.6-172-114.2-276.2-114.2s-202.4 40.4-276.2 114c-73.6 73.6-114.2 171.6-114.2 276 0 104.2 40.6 202.2 114.4 276 73.6 73.6 171.6 114.2 276 114.2zM512.2 896c-119.8 0-232.2-46.6-316.8-131.2-84.8-84.6-131.4-197.2-131.4-316.8s46.6-232.2 131.2-316.8 197.2-131.2 316.8-131.2c119.8 0 232.2 46.6 317 131.2 174.6 174.8 174.6 459 0 633.6-84.8 84.6-197.2 131.2-316.8 131.2zM534.2 620.6c6.8-5.8 10.2-14 10.2-25 0-10.6-3.4-18.8-9.8-24.8-6.6-6-14.4-9-23.4-9-9.4 0-17.4 3-24.2 8.8-6.6 5.8-10 14.2-10 25 0 9.8 3.4 17.8 10.2 24.2 6.8 6.2 14.8 9.4 23.8 9.4 8.8 0 16.6-2.8 23.2-8.6zM510.4 516.6c-8.4 0-15.4-2.8-20.6-8.6s-8-14.4-8-25.8v-180.2c0-11.2 2.6-20 8-26 5.2-6 12.2-9 20.6-9s15.4 3 21 8.8c5.6 6 8.2 14.8 8.2 26.2v182c0 10.2-2.6 18.4-8.2 24.2-5.6 5.6-12.6 8.4-21 8.4z" />
<glyph unicode="&#xe918;" glyph-name="legal-drug-free" d="M511.98 896c-247.010 0-447.98-201.012-447.98-448s200.97-448 447.98-448c247.006 0 448.020 201.012 448.020 448s-201.014 448-448.020 448zM511.98 108.62c-187.132 0-339.382 152.252-339.382 339.38 0 74.016 24.062 142.346 64.416 198.148l473.134-473.098c-55.842-40.368-124.172-64.43-198.168-64.43zM786.948 249.852l-473.136 473.098c55.842 40.37 124.172 64.432 198.168 64.432 187.192 0 339.4-152.25 339.4-339.382 0-74.016-24.062-142.348-64.432-198.148z" />
<glyph unicode="&#xe919;" glyph-name="legal-eoe" d="M64.004 567.472h209.072v-122.954c0-16.442 0-35.090-4.238-50.98-5.258-19.682-15.72-28.576-25.628-32.436v-152.044h-149.338v152.044c-4.81 1.826-9.1 4.652-12.808 8.342-17.146 17.164-17.092 49.36-17.058 75.212v122.816zM750.908 448c0-34.4 11.928-61.32 29.884-70.904v-168.038h149.358v168.246c18.89 10.65 29.816 41.052 29.85 70.696v119.472h-209.092v-119.472zM362.662 358.414c0-49.016 22.526-81.59 59.736-88.346v-210.332h179.192v210.332c37.224 6.756 59.77 39.33 59.77 88.346v209.058h-298.698v-209.058zM855.488 746.678c-41.154 0-74.696-33.538-74.696-74.696 0-41.156 33.542-74.66 74.696-74.66 41.158 0 74.662 33.504 74.662 74.66 0 41.158-33.504 74.696-74.662 74.696zM168.532 746.678c-41.156 0-74.66-33.538-74.66-74.696 0-41.156 33.504-74.66 74.66-74.66s74.678 33.504 74.678 74.66c-0.002 41.158-33.522 74.696-74.678 74.696zM512.002 836.264c-65.888 0-119.47-53.564-119.47-119.47 0-65.872 53.582-119.47 119.47-119.47 65.872 0 119.472 53.6 119.472 119.47 0 65.906-53.6 119.47-119.472 119.47z" />
<glyph unicode="&#xe91a;" glyph-name="legal-equal-housing" d="M512.4 755.7l-384-196.648v-79.954l42.448-0.6v-286.498h680.102l-0.296 287.098h45.746v79.954l-384 196.648zM775.348 267.598h-528.75v254.85l265.802 137.1 262.798-137.1 0.15-254.85zM386.7 455.548h249.152v68.85h-249.152v-68.85zM386.7 331.8h247.954v68.848h-247.954v-68.848z" />
<glyph unicode="&#xe91b;" glyph-name="legal-fdic-member" horiz-adv-x="1536" d="M196.82 448.72v-91.428h155.976v-120.424h-155.976v-214.728h-142.196v546.984h314.134v-120.404h-171.938zM597.106 569.142h-201.66v-547.002h201.66c151.644 0 277.866 119.698 277.866 273.502-0.006 153.804-125.498 273.5-277.866 273.5zM569.554 142.58h-31.93v306.14h33.378c91.408 0 155.972-55.132 155.972-153.078 0-106.65-72.544-153.062-157.42-153.062zM895.192 569.142h142.202v-547.002h-142.202v547.002zM1475.318 385.604c-29.014 39.168-76.168 60.202-124.766 60.202-87.064 0-145.82-66.738-145.82-151.63 0-86.304 59.472-148.694 147.972-148.694 46.446 0 92.858 22.476 122.614 58.026v-170.47c-47.168-14.53-81.252-25.392-125.508-25.392-76.148 0-148.716 29-205.296 80.512-60.222 54.414-87.79 125.508-87.79 206.768 0 74.702 28.306 146.54 80.532 200.226 53.684 55.118 131.32 88.494 208.21 88.494 45.704 0 87.77-10.156 129.852-27.566v-170.476zM54.624 680.364v-26.25h108.034v26.25c-31.296 1.012-36.346 5.050-36.346 26.252v132.266l64.62-184.77h27.262l69.666 184.77v-129.238c0-27.262 0-27.262-38.366-29.282v-26.25h125.198v26.25c-36.348 0-37.356 4.040-37.356 23.222v129.24c0 21.206 3.028 28.272 37.356 28.272v27.262h-107.026l-54.522-148.424-50.486 148.424h-108.034v-27.262c30.29 0 35.338 0 35.338-26.252v-124.19c0-24.232 0-30.29-35.338-30.29zM578.5 680.364v-26.25h99.958v26.25c-24.232 1.012-24.232 4.040-24.232 37.36v28.27c0 27.262 12.116 49.474 37.356 49.474 20.196 0 26.25-13.124 26.25-31.3v-59.57c0-20.194-1.008-24.232-25.242-24.232v-26.25h89.862v26.25c-21.204 0-23.222 2.020-23.222 22.212v41.396c0 28.272 13.124 52.504 39.378 52.504 20.192 0 24.23-12.116 24.23-36.348v-60.58c0-17.166 0-19.186-24.23-19.186v-26.25h98.948v26.25c-30.29 0-32.31-1.008-32.31 16.156v67.646c0 38.37-9.088 60.582-48.464 60.582-23.222 0-38.366-9.088-57.55-29.282-10.098 18.174-24.232 30.29-48.462 30.29-25.244 0-42.408-13.124-56.542-32.308v27.262h-75.728v-24.234c30.29 0 33.32-1.010 33.32-25.242v-55.532c-0.002-35.338-0.002-35.338-33.32-35.338zM909.644 888.286h70.678v-85.822c19.186 16.154 31.3 22.212 50.484 22.212 40.386 0 67.648-36.348 67.648-86.832 0-54.522-27.262-89.862-73.708-89.862-22.21 0-36.35 7.068-51.492 23.222l-14.136-19.184h-21.204v181.744c0 27.26-2.018 30.292-28.272 30.292v24.23zM1051.040 737.93c0 38.368-14.134 57.55-34.326 57.55-26.252 0-37.36-21.204-37.36-60.58 0-34.33 13.124-57.55 36.348-57.55 19.18 0 35.338 18.174 35.338 60.58zM1313.492 680.364v-26.25h109.044v26.25c-30.29 0-33.318-1.008-33.318 23.222v36.348c0 33.32 11.108 63.61 41.396 63.61 2.018 0 4.038 0 10.096-2.020-10.096-5.046-17.164-12.114-17.164-23.22 0-13.126 10.096-22.212 23.224-22.212 16.152 0 27.26 12.116 27.26 30.292 0 22.212-16.156 38.368-38.368 38.368-18.174 0-31.3-9.088-47.454-27.262v23.22h-74.718v-24.234c26.252 0 33.32 0 33.32-22.212v-68.658c0.002-23.224 0.002-25.242-33.318-25.242zM1176.19 732.784c0-32.308 15.144-54.522 42.404-54.522 24.234 0 35.34 14.136 39.378 36.348h30.292c-5.048-42.406-33.32-65.628-73.708-65.628-48.462 0-84.812 29.282-84.812 85.822 0 51.494 32.31 89.862 80.772 89.862 47.458 0 77.748-36.35 77.748-91.88h-112.074zM1210.52 798.55c-20.192 0-32.308-14.136-32.308-39.376h63.61c-0.002 26.25-10.1 39.376-31.302 39.376zM441.196 732.784c0-32.308 16.156-54.522 43.416-54.522 24.232 0 35.338 14.136 39.376 36.348h29.28c-5.048-42.406-32.308-65.628-72.696-65.628-48.462 0-85.822 29.282-85.822 85.822 0 51.494 33.32 89.862 81.782 89.862 47.456 0 76.736-36.35 76.736-91.88h-112.072zM476.526 798.55c-20.194 0-32.31-14.136-32.31-39.376h62.6c0 27.26-10.098 39.376-30.29 39.376z" />
<glyph unicode="&#xe91c;" glyph-name="legal-fdic" horiz-adv-x="1536" d="M1354.508 533.74c-47.366 0-85.792-38.408-85.792-85.792 0-47.38 38.426-85.794 85.792-85.794 47.38 0 85.794 38.414 85.794 85.794 0 47.384-38.414 85.792-85.794 85.792zM1354.508 366.446c-44.996 0-81.502 36.484-81.502 81.502 0 45.016 36.506 81.5 81.502 81.5 45.014 0 81.522-36.484 81.522-81.5 0-45.018-36.508-81.502-81.522-81.502zM1354.508 538.208c-49.838 0-90.242-40.408-90.242-90.262 0-49.834 40.404-90.264 90.242-90.264 49.834 0 90.26 40.432 90.26 90.264 0 49.854-40.426 90.262-90.26 90.262zM1354.508 359.772c-48.708 0-88.178 39.466-88.178 88.176 0 48.708 39.468 88.176 88.178 88.176 48.708 0 88.198-39.468 88.198-88.176 0-48.71-39.494-88.176-88.198-88.176zM1354.508 574.834c-70.072 0-126.884-56.812-126.884-126.886 0-70.078 56.812-126.888 126.884-126.888 70.074 0 126.872 56.81 126.872 126.888-0.004 70.072-56.798 126.886-126.872 126.886zM1354.508 325.242c-67.742 0-122.702 54.942-122.702 122.706 0 67.762 54.958 122.702 122.702 122.702 67.784 0 122.702-54.94 122.702-122.702-0.002-67.764-54.918-122.706-122.702-122.706zM1354.508 568.002c-66.294 0-120.052-53.76-120.052-120.054s53.758-120.048 120.052-120.048 120.052 53.754 120.052 120.048-53.758 120.054-120.052 120.054zM1354.508 330.064c-65.096 0-117.866 52.788-117.866 117.882s52.77 117.862 117.866 117.862c65.092 0 117.862-52.768 117.862-117.862s-52.77-117.882-117.862-117.882zM1331.972 558.586l-4.608-1.042-1.572-19.318c1.342 0.476 2.788 0.898 4.238 1.216l0.262 3.46 5.354 1.202 1.73-3.002c1.462 0.336 2.932 0.584 4.342 0.742l-9.746 16.742zM1330.63 547.072l0.428 4.944 2.466-4.292-2.894-0.652zM1433.552 525.9l-5.49-4.84c-0.686-0.6-0.756-1.658-0.158-2.346l4.060-4.63-2.44-2.084-5.134 5.844-2.9-2.578 6.31-7.134c0.778-0.866 2.12-0.954 3.002-0.194l5.472 4.678c0.706 0.6 0.776 1.664 0.178 2.37l-4.102 4.624 2.4 2.084 5.228-5.932 3.042 2.596-6.484 7.326c-0.774 0.868-2.114 0.992-2.984 0.216zM1269.388 489.554c-0.566-1.112-1.104-2.26-1.628-3.446l-16.316 8.088 5.124 10.28 3.53-1.82-3.318-6.728 2.792-1.414 2.86 5.778 3.532-1.84-2.844-5.718 6.268-3.18zM1428.576 533.3l-6.644 5.42c-1.042 0.88-2.614 0.706-3.458-0.336l-8.474-10.332c-0.85-1.058-0.744-2.684 0.368-3.498 1.464-1.094 2.878-2.17 3.234-2.47 0.386-0.32 1.802-1.696 3.318-2.932 1.060-0.864 2.646-0.724 3.498 0.354l8.512 10.332c0.862 1.058 0.706 2.594-0.354 3.462zM1418.436 523.162l-4.43 3.62 6.586 8 4.412-3.602-6.568-8.018zM1322.896 537.714c-1.094-0.162-1.432 0.792-1.55 1.094-0.14 0.316-1.626 3.602-2.122 4.73-0.36 0.832-1.31 1.166-2.084 0.814-0.070-0.018-0.14 0-0.162 0.052-0.038 0.052 0 0.124 0.054 0.14 0.794 0.356 1.164 1.31 0.794 2.12l-2.444 5.478c-0.4 0.864-1.41 1.252-2.278 0.864l-10.772-4.84 7.456-16.618c1.126 0.546 2.292 1.128 3.706 1.8l-2.858 6.376 3.566 1.608c0.742 0.32 1.594 0 1.908-0.724 0.386-0.866 1.234-3.142 1.48-3.708 0.246-0.584 0.622-0.972 1.164-1.182 1.522 0.652 2.866 1.2 4.26 1.714l-0.118 0.282zM1312.954 545.13l-3.938-1.766-1.272 2.88 3.922 1.748c0.492 0.228 1.058 0 1.288-0.478l0.474-1.112c0.21-0.476 0-1.040-0.474-1.272zM1356.646 542.658l-0.092 3.956-7.364-0.264-0.532 14.288-3.85-0.14 0.69-18.174c3.906 0.3 7.528 0.386 11.148 0.334zM1277.792 510.092l3.202-2.366c-2.244-2.826-4.38-5.74-6.536-9.042l-14.816 10.542 6.638 9.378 3.214-2.366-4.346-6.11 2.528-1.854 3.74 5.262 3.196-2.364-3.706-5.212 2.628-1.886 4.258 6.018zM1291.182 521.944l-9.398 9.516c-0.988 0.97-2.542 0.988-3.492 0.018l-7.804-7.752 12.976-13.068c1.232 1.358 4.114 4.45 4.452 4.786 0.37 0.334 1.852 1.606 3.27 3 0.962 0.956 0.962 2.526-0.004 3.5zM1283.306 516.326l-7.312 7.382 4.022 4.008 7.348-7.364-4.058-4.026zM1303.456 532.396l2.192-3.284c-3.094-1.924-6.096-3.938-9.204-6.304l-10.372 14.976 9.452 6.532 2.192-3.318-6.162-4.258 1.786-2.594 5.298 3.674 2.19-3.32-5.266-3.638 1.834-2.668 6.060 4.202zM1378.664 558.498l-10.838 1.91-3.18-18.138c1.818-0.228 6.002-0.81 6.46-0.884 0.492-0.088 2.4-0.598 4.324-0.936 1.328-0.232 2.632 0.672 2.878 2.014l2.366 13.172c0.236 1.344-0.648 2.634-2.010 2.862zM1374.796 544.69l-5.628 0.988 1.832 10.206 5.586-0.99-1.79-10.204zM1394.19 538.35l-1.45-3.692c-3.318 1.448-6.694 2.754-10.434 3.956l6.356 17.078 10.776-4.008-1.466-3.708-7.034 2.612-1.108-2.932 6.036-2.258-1.448-3.692-6.002 2.24-1.128-3.038 6.902-2.558zM1414.906 543.788l-10.494 5.918-9.11-16.176c1.164-0.584 2.368-1.184 3.742-1.962l3.5 6.218 6.92-3.884c0.78-0.46 1.768-0.178 2.222 0.6l3.888 6.904c0.482 0.846 0.18 1.904-0.668 2.382zM1409.708 539.532c-0.282-0.476-0.88-0.634-1.362-0.372l-3.794 2.138 1.556 2.792 3.81-2.138c0.498-0.264 0.66-0.864 0.392-1.36l-0.602-1.060zM1432 502.552l15.082 10.136 2.12-3.196-15.044-10.136c-0.334 0.548-0.708 1.078-1.058 1.624-0.362 0.53-0.726 1.042-1.1 1.572zM1452.326 496.020l-12.68-6.482c-0.264 0.582-0.548 1.146-0.868 1.73-0.282 0.584-0.584 1.15-0.88 1.696l12.682 6.5-1.818 3.534 3.516 1.8 5.364-10.49-3.508-1.784-1.808 3.496zM1252.946 480.144l-0.162-4.878 4.522-1.852-4.698-1.346-0.352-4.89-2.72 4.044-4.768-1.164 3.006 3.868-2.584 4.132 4.592-1.642 3.164 3.728zM1456.088 480.144l0.176-4.878-4.554-1.852 4.696-1.346 0.356-4.89 2.754 4.044 4.752-1.164-3.006 3.868 2.562 4.132-4.59-1.642-3.146 3.728zM1312.62 348.364l-0.472-1.024-5.178 2.352 4.272 9.46 5.196-2.382-0.458-1.024 3.494-1.592 1.126 2.456c0.562 1.254 0.018 2.734-1.234 3.302-1.782 0.806-3.606 1.552-4.046 1.748-0.436 0.194-2.064 0.902-3.686 1.75-1.208 0.618-2.72 0.012-3.286-1.222l-5.548-12.168c-0.562-1.214 0-2.7 1.238-3.266l7.772-3.562c1.252-0.548 2.716-0.024 3.286 1.234l1.042 2.328-3.518 1.61zM1260.046 451.902l-18.122 1.146 0.26 3.85 18.122-1.128c-0.070-0.652-0.108-1.304-0.14-1.958-0.070-0.638-0.084-1.274-0.12-1.91zM1259.376 429.318l-7.086-1.876c-0.88-0.226-1.43-1.144-1.2-2.044l1.586-5.936-3.122-0.778-2 7.524-3.742-0.988 2.456-9.216c0.284-1.116 1.482-1.788 2.6-1.504l6.99 1.716c0.882 0.222 1.448 1.144 1.202 2.032l-1.572 5.986 3.058 0.778 2.030-7.626 3.868 0.95-2.506 9.464c-0.288 1.11-1.456 1.814-2.562 1.518zM1250.136 435.568l10.484 1.020c0.070-0.63 0.116-1.272 0.186-1.92 0.068-0.632 0.106-1.272 0.176-1.904l-18.052-1.716-0.352 3.832 10.634 8.124-11.376-0.352-0.084 3.844 18.132 0.534c0-0.656 0.036-1.312 0.036-1.944 0.036-0.636 0.036-1.27 0.070-1.906l-9.854-7.612zM1253.472 398.376c0.546-1.254 2-1.84 3.232-1.306l14.48 6.272-1.574 3.55-12.974-5.65-2.294 5.242 12.996 5.618-1.57 3.604-14.392-6.254c-1.236-0.542-1.908-2.066-1.306-3.304l3.402-7.772zM1286.27 382.078l-17.026-9.010 3.128-3.088 3.14 1.73 3.902-3.87-1.678-3.164 3.124-3.090 8.784 17.166-3.374 3.326zM1281.326 371.584l-2.106 2.088 4.368 2.328-2.262-4.416zM1280.016 389.562c-2.33 2.848-4.698 6.55-6.708 9.73l-14.944-10.316 2.33-3.386 5.832 3.988 2.194-3.21c0.458-0.656 0.296-1.54-0.354-1.996-0.782-0.542-2.866-1.766-3.394-2.138-0.506-0.354-0.878-0.824-0.984-1.41l2.576-3.764 0.176 0.108c-0.352 1.044 0.532 1.556 0.792 1.75 0.298 0.194 3.272 2.246 4.292 2.93 0.738 0.492 0.9 1.482 0.408 2.208-0.038 0.054-0.038 0.124 0.014 0.16 0.070 0.038 0.14 0.016 0.176-0.036 0.478-0.722 1.486-0.898 2.19-0.422l4.968 3.402c0.774 0.536 0.966 1.606 0.436 2.402zM1274.576 388.73l-0.984-0.688c-0.428-0.3-1.064-0.176-1.346 0.246l-2.436 3.55 2.576 1.782 2.44-3.53c0.316-0.454 0.212-1.054-0.25-1.36zM1333.102 351.382l1.026 3.832c-3.532 0.812-6.99 1.78-10.716 3.024l-5.086-17.468 11.040-3.214 1.042 3.854-7.226 2.078 0.884 3.024 6.182-1.798 1.026 3.848-6.114 1.768 0.848 3.108 7.094-2.056zM1297.994 359.132l5.826 8.758c0.534-0.352 1.082-0.742 1.624-1.094 0.53-0.332 1.042-0.684 1.59-1.024l-10.102-15.082-3.21 2.138 0.472 13.384-6.94-9.012-3.072 2.348 11.124 14.366c0.482-0.384 0.994-0.794 1.522-1.188 0.492-0.408 0.988-0.776 1.516-1.164l-0.35-12.43zM1373.58 352.354c-0.176 1.358-1.48 2.38-2.804 2.124-1.816-0.342-3.572-0.66-4.008-0.708-0.5-0.070-2.478-0.16-4.416-0.43-1.362-0.21-2.296-1.45-2.12-2.804l1.796-13.28c0.21-1.34 1.434-2.282 2.792-2.084l8.476 1.182c1.358 0.176 2.308 1.434 2.122 2.792l-1.838 13.208zM1365.688 339.212l-1.434 10.298 5.652 0.792 1.414-10.296-5.632-0.794zM1410.56 359.45l-3.708 6.996c-0.498 0.87-1.554 1.168-2.408 0.706-2.89-1.78-8.154-4.518-10.592-5.646l8.692-16.32c1.126 0.676 2.332 1.22 3.74 2.018l-3.388 6.3 6.99 3.748c0.78 0.432 1.096 1.408 0.674 2.198zM1404.842 359.168l-3.854-2.082-1.516 2.844 3.846 2.070c0.496 0.246 1.094 0.070 1.348-0.428l0.58-1.076c0.264-0.478 0.088-1.082-0.404-1.328zM1457.462 401.32l-13.066 5.652-1.586-3.652-3.61 1.574c1.556 2.926 3.466 7.488 4.666 10.804l3.634-1.57-1.586-3.622 13.082-5.636-1.534-3.55zM1353.502 339.832l-0.036-1.146-5.672 0.228 0.354 10.368 5.724-0.208-0.036-1.126 3.81-0.164 0.124 2.718c0.048 1.378-1.012 2.51-2.384 2.558-1.978 0.092-3.924 0.070-4.436 0.092-0.458 0.022-2.222 0.048-4.076 0.232-1.344 0.12-2.53-1.044-2.576-2.41l-0.5-13.312c-0.070-1.376 0.99-2.524 2.374-2.576l8.56-0.334c1.362-0.056 2.508 1.002 2.562 2.366l0.068 2.542-3.86 0.172zM1396.062 342.816c-1.114-0.038-1.328 0.97-1.434 1.292-0.084 0.328-1.164 3.76-1.518 4.974-0.246 0.83-1.164 1.292-1.976 1.042-0.070-0.016-0.14 0-0.162 0.054-0.014 0.070 0.022 0.124 0.092 0.14 0.85 0.264 1.304 1.166 1.026 1.996l-1.732 5.738c-0.296 0.918-1.274 1.428-2.192 1.128-3.388-1.376-7.628-2.524-11.264-3.512l5.37-17.342 3.972 1.236-2.1 6.744 3.724 1.166c0.758 0.226 1.564-0.21 1.818-0.972 0.26-0.882 0.808-3.234 1.002-3.85 0.2-0.598 0.514-1.112 1.046-1.378l4.376 1.364-0.048 0.18zM1387.070 351.398l-4.092-1.29-0.956 3.016 4.092 1.276c0.534 0.158 1.080-0.124 1.24-0.632l0.354-1.168c0.164-0.498-0.14-1.042-0.638-1.202zM1428.716 365.562l-8.43 10.346c-0.866 1.060-2.468 1.292-3.512 0.36-1.34-1.22-2.686-2.384-3.038-2.69-0.408-0.296-2.030-1.41-3.572-2.644-1.054-0.868-1.212-2.436-0.352-3.48l8.408-10.414c0.88-1.062 2.4-1.246 3.478-0.376l6.638 5.418c1.068 0.868 1.23 2.422 0.38 3.48zM1420.346 360.602l-6.536 8.040 4.414 3.614 6.534-8.086-4.412-3.568zM1444.502 379.458c-0.914-0.598-1.622 0.14-1.868 0.362-0.254 0.224-2.956 2.612-3.888 3.458-0.654 0.582-1.656 0.512-2.24-0.14-0.054-0.056-0.124-0.056-0.16-0.024-0.036 0.036-0.036 0.126 0 0.176 0.598 0.64 0.528 1.668-0.14 2.246l-4.488 3.97c-0.706 0.638-1.796 0.586-2.438-0.138-2.192-2.932-5.194-6.124-7.82-8.848l13.598-12.042 2.738 3.108-5.268 4.662 2.584 2.932c0.53 0.6 1.424 0.654 2.008 0.126 0.708-0.602 2.422-2.352 2.896-2.758 0.458-0.43 1.026-0.688 1.592-0.652l3.038 3.424-0.144 0.138zM1427.194 380.996l2.83 3.214c0.354 0.386 0.988 0.422 1.376 0.090l0.904-0.798c0.404-0.366 0.436-0.966 0.084-1.376l-2.864-3.208-2.33 2.078zM1436.452 399.594l-2.47-4.026 12.538-14.608 2.316 3.724-2.366 2.67 2.876 4.66 3.498-0.936 2.292 3.74-18.684 4.776zM1440.494 394.316l4.788-1.238-1.55-2.524-3.238 3.762zM1446.024 422.41l17.376-5.228-1.116-3.692-17.376 5.228c0.198 0.622 0.374 1.22 0.566 1.856 0.194 0.618 0.352 1.218 0.55 1.836zM1459.872 453.706l-10.53-0.374c-0.018 0.62-0.036 1.272-0.052 1.924-0.018 0.636-0.050 1.272-0.088 1.908l18.152 0.62 0.124-3.868-11.144-7.436 11.376-0.372-0.138-3.85-18.14 0.604c0.038 0.648 0.074 1.292 0.088 1.938 0.022 0.634 0.038 1.274 0.038 1.91l10.314 6.996zM1464.846 436.876l-13.194 1.978c-1.354 0.21-2.704-0.74-2.842-2.084-0.176-1.842-0.386-3.608-0.458-4.062-0.070-0.48-0.534-2.398-0.814-4.328-0.208-1.362 0.708-2.632 2.070-2.824l13.222-2.050c1.378-0.192 2.62 0.726 2.83 2.088l1.248 8.456c0.2 1.36-0.718 2.63-2.062 2.826zM1462.020 427.57l-10.276 1.55 0.85 5.65 10.238-1.588-0.812-5.612zM1311.378 492.84c0.974 0 1.754 0.776 1.754 1.746 0 0.974-0.78 1.768-1.754 1.768-0.988 0-1.764-0.794-1.764-1.768 0.004-0.97 0.776-1.746 1.764-1.746zM1305.306 486.764c0.958 0 1.748 0.776 1.748 1.75 0 0.97-0.792 1.764-1.748 1.764s-1.77-0.792-1.77-1.764c0.006-0.974 0.818-1.75 1.77-1.75zM1317.458 486.764c0.968 0 1.746 0.776 1.746 1.75 0 0.97-0.778 1.764-1.746 1.764-0.956 0-1.77-0.792-1.77-1.764 0.002-0.974 0.816-1.75 1.77-1.75zM1311.378 480.688c0.974 0 1.754 0.778 1.754 1.748 0 0.954-0.78 1.768-1.754 1.768-0.988 0-1.764-0.816-1.764-1.768 0.004-0.97 0.776-1.748 1.764-1.748zM1323.324 492.84c0.984 0 1.762 0.776 1.762 1.746 0 0.974-0.778 1.768-1.762 1.768-0.958 0-1.754-0.794-1.754-1.768 0-0.97 0.8-1.746 1.754-1.746zM1385.836 492.84c0.988 0 1.768 0.776 1.768 1.746 0 0.974-0.78 1.768-1.768 1.768-0.954 0-1.748-0.794-1.748-1.768 0-0.97 0.794-1.746 1.748-1.746zM1399.15 492.84c0.99 0 1.768 0.776 1.768 1.746 0 0.974-0.778 1.768-1.768 1.768-0.952 0-1.726-0.794-1.726-1.768 0-0.97 0.778-1.746 1.726-1.746zM1323.338 480.884c0.954 0 1.748 0.776 1.748 1.746 0 0.972-0.792 1.766-1.748 1.766-0.968 0-1.746-0.794-1.746-1.766 0-0.97 0.778-1.746 1.746-1.746zM1336.068 468.732c0.958 0 1.77 0.78 1.77 1.75 0 0.968-0.812 1.764-1.77 1.764-0.988 0-1.768-0.796-1.768-1.764 0-0.97 0.78-1.75 1.768-1.75zM1342.73 463.046c0.964 0 1.748 0.776 1.748 1.764 0 0.956-0.784 1.75-1.748 1.75-0.958 0-1.75-0.792-1.75-1.75 0-0.988 0.796-1.764 1.75-1.764zM1317.246 474.806c0.97 0 1.768 0.778 1.768 1.75 0 0.97-0.794 1.764-1.768 1.764-0.956 0-1.732-0.794-1.732-1.764 0-0.972 0.778-1.75 1.732-1.75zM1311.378 468.928c0.974 0 1.754 0.776 1.754 1.748s-0.78 1.764-1.754 1.764c-0.988 0-1.764-0.794-1.764-1.764 0.002-0.97 0.776-1.748 1.764-1.748zM1317.352 462.958c0.988 0 1.762 0.776 1.762 1.748 0 0.956-0.774 1.75-1.762 1.75-0.954 0-1.768-0.792-1.768-1.75 0-0.972 0.814-1.748 1.768-1.748zM1329.784 450.51c0.972 0 1.77 0.776 1.77 1.746 0 0.972-0.794 1.766-1.77 1.766-0.958 0-1.728-0.794-1.728-1.766-0.004-0.97 0.77-1.746 1.728-1.746zM1311.378 456.972c0.974 0 1.754 0.778 1.754 1.766 0 0.954-0.78 1.746-1.754 1.746-0.988 0-1.764-0.792-1.764-1.746 0.004-0.988 0.776-1.766 1.764-1.766zM1311.378 444.436c0.974 0 1.754 0.776 1.754 1.744 0 0.972-0.78 1.768-1.754 1.768-0.988 0-1.764-0.794-1.764-1.768 0.004-0.972 0.776-1.744 1.764-1.744zM1311.378 432.472c0.974 0 1.754 0.784 1.754 1.774 0 0.954-0.78 1.744-1.754 1.744-0.988 0-1.764-0.792-1.764-1.744 0.004-0.99 0.776-1.774 1.764-1.774zM1317.654 438.746c0.954 0 1.746 0.778 1.746 1.766 0 0.954-0.792 1.75-1.746 1.75-0.974 0-1.754-0.796-1.754-1.75 0-0.988 0.78-1.766 1.754-1.766zM1323.922 444.436c0.966 0 1.748 0.776 1.748 1.744 0 0.972-0.782 1.768-1.748 1.768-0.956 0-1.768-0.794-1.768-1.768 0-0.972 0.812-1.744 1.768-1.744zM1317.654 450.704c0.954 0 1.746 0.776 1.746 1.746 0 0.972-0.792 1.766-1.746 1.766-0.974 0-1.754-0.794-1.754-1.766s0.78-1.746 1.754-1.746zM1305.412 426.512c0.958 0 1.73 0.774 1.73 1.744 0 0.952-0.776 1.768-1.73 1.768-0.988 0-1.768-0.816-1.768-1.768 0-0.97 0.78-1.744 1.768-1.744zM1336.068 480.884c0.958 0 1.77 0.776 1.77 1.746 0 0.972-0.812 1.766-1.77 1.766-0.988 0-1.768-0.794-1.768-1.766 0-0.97 0.78-1.746 1.768-1.746zM1342.146 474.806c0.968 0 1.748 0.778 1.748 1.75 0 0.97-0.78 1.764-1.748 1.764-0.958 0-1.768-0.794-1.768-1.764 0-0.972 0.814-1.75 1.768-1.75zM1348.61 469.122c0.958 0 1.764 0.776 1.764 1.764 0 0.954-0.806 1.748-1.764 1.748-0.954 0-1.766-0.794-1.766-1.748 0-0.988 0.812-1.764 1.766-1.764zM1348.61 480.884c0.958 0 1.764 0.776 1.764 1.746 0 0.972-0.806 1.766-1.764 1.766-0.954 0-1.766-0.794-1.766-1.766 0-0.97 0.812-1.746 1.766-1.746zM1354.684 474.806c0.988 0 1.766 0.778 1.766 1.75 0 0.97-0.778 1.764-1.766 1.764-0.956 0-1.764-0.794-1.764-1.764 0-0.972 0.808-1.75 1.764-1.75zM1360.76 480.884c0.968 0 1.746 0.776 1.746 1.746 0 0.972-0.778 1.766-1.746 1.766-0.954 0-1.77-0.794-1.77-1.766 0-0.97 0.816-1.746 1.77-1.746zM1367.826 474.614c0.95 0 1.746 0.778 1.746 1.748 0 0.974-0.796 1.768-1.746 1.768-0.974 0-1.77-0.794-1.77-1.768 0-0.972 0.796-1.748 1.77-1.748zM1373.686 480.688c0.992 0 1.77 0.778 1.77 1.748s-0.778 1.768-1.77 1.768c-0.97 0-1.746-0.798-1.746-1.768s0.772-1.748 1.746-1.748zM1361.542 468.732c0.954 0 1.762 0.78 1.762 1.75 0 0.968-0.808 1.764-1.762 1.764-0.958 0-1.75-0.796-1.75-1.764 0-0.97 0.792-1.75 1.75-1.75zM1368.002 462.27c0.99 0 1.764 0.778 1.764 1.748s-0.774 1.768-1.764 1.768c-0.954 0-1.748-0.798-1.748-1.768 0-0.972 0.794-1.748 1.748-1.748zM1374.178 468.432c0.958 0 1.77 0.778 1.77 1.766 0 0.954-0.81 1.746-1.77 1.746-0.954 0-1.762-0.792-1.762-1.746 0-0.988 0.808-1.766 1.762-1.766zM1392.406 486.27c0.974 0 1.748 0.776 1.748 1.766 0 0.954-0.774 1.748-1.748 1.748-0.958 0-1.764-0.792-1.764-1.748 0-0.992 0.81-1.766 1.764-1.766zM1404.948 487.062c0.956 0 1.77 0.78 1.77 1.75 0 0.954-0.814 1.748-1.77 1.748-0.972 0-1.748-0.794-1.748-1.748 0-0.97 0.772-1.75 1.748-1.75zM1398.588 480.688c0.958 0 1.746 0.778 1.746 1.748s-0.792 1.768-1.746 1.768c-0.974 0-1.77-0.798-1.77-1.768s0.796-1.748 1.77-1.748zM1392.3 474.42c0.954 0 1.766 0.776 1.766 1.748 0 0.974-0.812 1.766-1.766 1.766-0.97 0-1.75-0.792-1.75-1.766 0-0.972 0.78-1.748 1.75-1.748zM1392.3 462.252c0.954 0 1.766 0.778 1.766 1.748 0 0.952-0.812 1.75-1.766 1.75-0.97 0-1.75-0.798-1.75-1.75 0-0.97 0.78-1.748 1.75-1.748zM1398.588 468.148c0.958 0 1.746 0.78 1.746 1.75s-0.792 1.766-1.746 1.766c-0.974 0-1.77-0.794-1.77-1.766 0-0.97 0.796-1.75 1.77-1.75zM1399.948 456c0.97 0 1.748 0.776 1.748 1.75 0 0.972-0.778 1.764-1.748 1.764-0.954 0-1.746-0.792-1.746-1.764 0-0.974 0.792-1.75 1.746-1.75zM1393.486 449.922c0.954 0 1.746 0.78 1.746 1.75s-0.792 1.764-1.746 1.764c-0.974 0-1.748-0.794-1.748-1.764s0.774-1.75 1.748-1.75zM1380.538 450.12c0.974 0 1.772 0.776 1.772 1.748s-0.794 1.764-1.772 1.764c-0.956 0-1.726-0.794-1.726-1.764s0.77-1.748 1.726-1.748zM1387.216 443.654c0.968 0 1.748 0.782 1.748 1.748 0 0.972-0.78 1.768-1.748 1.768-0.958 0-1.77-0.794-1.77-1.768 0.004-0.966 0.812-1.748 1.77-1.748zM1392.692 438.16c0.984 0 1.762 0.778 1.762 1.768 0 0.958-0.778 1.748-1.762 1.748-0.954 0-1.754-0.792-1.754-1.748 0-0.99 0.8-1.768 1.754-1.768zM1399.556 432.088c0.972 0 1.748 0.776 1.748 1.766 0 0.956-0.776 1.75-1.748 1.75-0.952 0-1.746-0.794-1.746-1.75 0-0.99 0.798-1.766 1.746-1.766zM1316.856 399.368c0.956 0 1.766 0.78 1.766 1.742 0 0.976-0.81 1.774-1.766 1.774-0.968 0-1.75-0.794-1.75-1.774 0-0.966 0.778-1.742 1.75-1.742zM1329.396 411.902c0.988 0 1.768 0.774 1.768 1.764 0 0.958-0.78 1.748-1.768 1.748-0.958 0-1.748-0.792-1.748-1.748 0-0.99 0.792-1.764 1.748-1.764zM1335.382 417.89c0.964 0 1.748 0.776 1.748 1.746 0 0.956-0.784 1.75-1.748 1.75-0.97 0-1.75-0.794-1.75-1.75 0-0.97 0.78-1.746 1.75-1.746zM1341.754 424.248c0.976 0 1.754 0.774 1.754 1.748 0 0.972-0.778 1.762-1.754 1.762-0.988 0-1.762-0.79-1.762-1.762 0-0.974 0.774-1.748 1.762-1.748zM1347.924 430.426c0.966 0 1.746 0.778 1.746 1.75 0 0.954-0.78 1.748-1.746 1.748-0.974 0-1.748-0.794-1.748-1.748 0-0.972 0.774-1.75 1.748-1.75zM1354.086 436.588c0.966 0 1.762 0.784 1.762 1.772 0 0.956-0.792 1.744-1.762 1.744-0.956 0-1.732-0.792-1.732-1.744 0-0.988 0.776-1.772 1.732-1.772zM1360.478 430.238c0.956 0 1.726 0.774 1.726 1.744 0 0.95-0.774 1.748-1.726 1.748-0.988 0-1.77-0.798-1.77-1.748 0-0.97 0.782-1.744 1.77-1.744zM1367.12 424.354c0.966 0 1.77 0.794 1.77 1.748s-0.8 1.75-1.77 1.75c-0.958 0-1.748-0.796-1.748-1.75s0.79-1.748 1.748-1.748zM1373.19 418.282c0.974 0 1.77 0.78 1.77 1.742 0 0.958-0.792 1.75-1.77 1.75-0.966 0-1.746-0.792-1.746-1.75 0-0.966 0.776-1.742 1.746-1.742zM1360.478 418.082c0.956 0 1.726 0.778 1.726 1.75 0 0.954-0.774 1.752-1.726 1.752-0.988 0-1.77-0.798-1.77-1.752 0-0.972 0.782-1.75 1.77-1.75zM1354.402 424.16c0.954 0 1.73 0.778 1.73 1.748 0 0.956-0.78 1.744-1.73 1.744-0.99 0-1.764-0.79-1.764-1.744 0-0.97 0.774-1.748 1.764-1.748zM1348.114 417.89c0.988 0 1.77 0.776 1.77 1.746 0 0.956-0.782 1.75-1.77 1.75-0.968 0-1.748-0.794-1.748-1.75 0-0.97 0.776-1.746 1.748-1.746zM1342.042 411.816c0.988 0 1.764 0.778 1.764 1.742 0 0.958-0.776 1.75-1.764 1.75-0.97 0-1.754-0.792-1.754-1.75 0-0.964 0.78-1.742 1.754-1.742zM1354.402 411.816c0.954 0 1.73 0.778 1.73 1.742 0 0.958-0.78 1.75-1.73 1.75-0.99 0-1.764-0.792-1.764-1.75 0-0.964 0.774-1.742 1.764-1.742zM1366.548 411.816c0.958 0 1.732 0.778 1.732 1.742 0 0.958-0.778 1.75-1.732 1.75-0.966 0-1.764-0.792-1.764-1.75 0.004-0.964 0.798-1.742 1.764-1.742zM1385.554 406.128c0.954 0 1.748 0.774 1.748 1.75 0 0.954-0.794 1.742-1.748 1.742-0.988 0-1.77-0.792-1.77-1.742 0.004-0.976 0.782-1.75 1.77-1.75zM1392.020 400.25c0.956 0 1.748 0.778 1.748 1.744 0 0.97-0.792 1.772-1.748 1.772-0.99 0-1.768-0.8-1.768-1.772 0-0.966 0.778-1.744 1.768-1.744zM1385.73 393.786c0.988 0 1.768 0.78 1.768 1.75 0 0.956-0.78 1.742-1.768 1.742-0.956 0-1.726-0.79-1.726-1.742 0-0.974 0.774-1.75 1.726-1.75zM1360.866 393.586c0.968 0 1.746 0.782 1.746 1.75 0 0.954-0.778 1.75-1.746 1.75-0.988 0-1.762-0.796-1.762-1.75 0-0.968 0.772-1.75 1.762-1.75zM1348.114 393.586c0.988 0 1.77 0.782 1.77 1.75 0 0.954-0.782 1.75-1.77 1.75-0.968 0-1.748-0.796-1.748-1.75 0-0.968 0.776-1.75 1.748-1.75zM1366.724 387.708c0.958 0 1.77 0.78 1.77 1.75 0 0.956-0.812 1.754-1.77 1.754-0.952 0-1.746-0.798-1.746-1.754 0-0.974 0.798-1.75 1.746-1.75zM1354.402 387.708c0.954 0 1.73 0.78 1.73 1.75 0 0.956-0.78 1.754-1.73 1.754-0.99 0-1.764-0.798-1.764-1.754 0-0.974 0.774-1.75 1.764-1.75zM1342.042 387.708c0.988 0 1.764 0.78 1.764 1.75 0 0.956-0.776 1.754-1.764 1.754-0.97 0-1.754-0.798-1.754-1.754 0-0.974 0.78-1.75 1.754-1.75zM1361.504 377.152c3.032 1.902 14.268 7.128 22.268 8.652 2.876 0.528 2.278-0.624-0.442-1.222-8.828-1.976-19.708-7.032-20.768-7.892-1.198-0.99-3.318-0.958-1.058 0.462zM1349.348 376.14c-3.284 2.504-12.814 6.55-20.816 8.070-2.876 0.544-2.282-0.62 0.446-1.204 8.828-1.976 15.856-5.046 19.312-7.326 1.29-0.868 3.142-1.16 1.058 0.46zM1420.592 485.67c0.602 2.738-8.656 14.71-23.66 14.71-9.686 0-17.314-4.716-27.624-4.716-3.924 0-10.846 1.834-14.8 4.256-3.938-2.422-10.952-4.256-14.906-4.256-10.31 0-17.87 4.716-27.584 4.716-14.99 0-24.228-11.972-23.628-14.71-3.040-1.22-7.892-6.678-4.858-9.696 11.074 3.92 14.554-5.756 14.554-11.232 0-12.556-9.558-19.092-9.558-41.52 0-7.064 1.824-34.396 39.064-43.016 5.812-1.364 18.584-4.718 26.916-12.456 8.336 7.734 21.018 11.092 26.806 12.456 37.262 8.62 39.066 35.952 39.066 43.016 0 22.428-9.52 28.962-9.52 41.52 0 5.476 3.474 15.152 14.536 11.232 3.040 3.018-1.768 8.476-4.804 9.696zM1291.674 488.16c2.594 0.266 4.118-0.478 5.332-1.008 1.376-0.634 1.734 0.6 0.672 1.202-1.042 0.548-2.51 1.29-4.926 1.29 0.408 0.494 0.866 1.006 1.41 1.518 1.186-0.124 2.226-0.744 3.042-1.042 1.22-0.458 1.694 0.546 0.78 1.252-0.232 0.14-2.070 0.85-2.598 0.92 3.604 3.038 9.288 5.966 16.632 5.966 9.714 0 17.274-4.698 27.584-4.698 3.164 0 8.23 1.182 12.168 2.886 1.396-0.088 1.712-2.788 1.712-4.138 0-0.798-0.776-1.928-2.17-1.928-1.396 0-3.87 1.27-7.28 1.27s-6.958-1.428-10.684-1.428c-3.708 0-4.55 1.042-5.492 1.042-0.936 0-2.788-0.39-2.788-1.748 0-0.564 0.422-0.876 0.862-1.146-0.246-0.32-0.458-0.674-0.458-1.114 0-0.75 0.496-1.266 1.116-1.582l-6.304-24.556c1.022-3.034 4.57-4.75 7.206-4.75 2.63 0 6.182 1.714 7.208 4.75l-6.322 24.62c0.528 0.344 0.958 0.828 0.958 1.518 0 0.316-0.198 0.548-0.338 0.812 0.812 0.308 1.958 0.724 4.364 0.724 3.726 0 7.276-1.43 10.686-1.43 3.408 0 5.878 1.29 7.278 1.29s2.17-1.132 2.17-1.926c0-0.794-1.692-2.384-1.692-2.384l2.7-4.118 2.704 4.118c0 0-1.698 1.588-1.698 2.384 0 0.794 0.778 1.926 2.19 1.926 1.364 0 3.856-1.29 7.258-1.29 3.41 0 6.96 1.43 10.666 1.43 2.422 0 3.586-0.422 4.38-0.724-0.14-0.264-0.338-0.496-0.338-0.812 0-0.678 0.428-1.174 0.956-1.512l-6.314-24.626c1.020-3.034 4.568-4.75 7.2-4.75s6.184 1.714 7.208 4.75l-6.304 24.556c0.624 0.31 1.116 0.834 1.116 1.582 0 0.44-0.208 0.794-0.458 1.12 0.442 0.266 0.864 0.582 0.864 1.14 0 1.358-1.852 1.748-2.808 1.748-0.918 0-1.768-1.042-5.494-1.042-3.706 0-7.256 1.428-10.666 1.428-3.402 0-5.894-1.27-7.258-1.27-1.412 0-2.19 1.13-2.19 1.928 0 1.358 0.316 4.068 1.732 4.138 3.954-1.706 9.004-2.886 12.164-2.886 10.298 0 17.894 4.698 27.61 4.698 12.85 0 20.606-8.954 21.046-11.832-0.568 0.070-1.342 0.052-2.26-0.124-1.304 2.156-2.33 2.738-2.826 3.020-1.030 0.564-1.73-0.282-0.816-1.218 0.606-0.566 1.524-1.22 2.122-2.19-0.492-0.14-0.984-0.336-1.516-0.546-0.83 1.234-1.7 1.908-2.402 2.416-0.99 0.746-1.944-0.088-0.828-1.112 0.6-0.512 1.25-1.056 1.922-1.974-3.99-2.298-8.090-7.134-8.090-16.462 0-2.556 1.502-10.754 4.24-14.25-3.042 0.46-8.792 0.302-4.24-7.718-6.676-1.376-5.012-8.048-2.89-8.048 2.806 0 2.576 1.516 5.31 1.516 1.96 0 2.154-1.304 1.042-1.656-1.34-0.46-2.262-1.222-2.262-2.738 0-2.792 4.1-1.364 7.664-9.54-1.212 0.372-1.902 0.6-2.73 0.6-0.834 0-2.812-0.298-2.812-1.958 0-1.218 1.894-2.95 2.896-6.5l-55.098 53.934-54.994-53.83c1.008 3.466 2.84 5.178 2.84 6.394 0 1.66-1.958 1.958-2.804 1.958-0.83 0-1.498-0.228-2.716-0.6 3.564 8.176 7.664 6.742 7.664 9.54 0 1.516-0.92 2.278-2.294 2.738-1.094 0.352-0.882 1.656 1.076 1.656 2.7 0 2.488-1.516 5.296-1.516 2.122 0 3.784 6.674-2.878 8.048 4.542 8.020-1.2 8.178-4.236 7.718 2.72 3.494 4.236 11.692 4.236 14.25 0 15.612-11.51 18.65-14.688 18.192 0.046 0.46 0.27 1.044 0.678 1.734zM1326.636 461.12h-4.728l4.728 18.244v-18.244zM1328.44 461.12v18.244l4.732-18.244h-4.732zM1380.524 461.12h-4.714l4.714 18.244v-18.244zM1382.342 479.364l4.728-18.244h-4.728v18.244zM1398.658 399.876c0-0.894-4.7-9.094-18.192-12.414-6.584-1.622-20.976-5.704-25.958-10.542-5.020 4.84-19.392 8.922-25.962 10.542-13.486 3.32-18.19 11.52-18.19 12.414 0 0.21 0.038 0.566 0.022 0.972l44.098 43.158 44.164-43.248c-0.004-0.352 0.018-0.684 0.018-0.882zM1399.522 403.106l-45.046 44.118-45.020-44.084c-0.352 0.358-0.932 0.592-1.622 0.742l46.638 45.656 46.64-45.666c-0.686-0.176-1.236-0.394-1.59-0.766zM1404.328 410.844l0.014-2.844-2.682 0.902-2.686-0.902 0.036 2.844-1.656 2.26 2.682 0.846 1.624 2.3 1.658-2.3 2.688-0.846-1.678-2.26zM1396.432 418.508l0.038-2.824-2.664 0.9-2.692-0.9 0.056 2.824-1.71 2.278 2.704 0.828 1.642 2.312 1.638-2.312 2.69-0.828-1.702-2.278zM1388.574 426.192l0.036-2.828-2.668 0.902-2.682-0.902 0.014 2.828-1.678 2.262 2.69 0.844 1.656 2.292 1.626-2.292 2.684-0.844-1.678-2.262zM1380.712 433.872v-2.844l-2.668 0.922-2.66-0.922 0.036 2.844-1.7 2.262 2.69 0.852 1.634 2.292 1.646-2.292 2.686-0.852-1.664-2.262zM1372.838 441.536l0.022-2.806-2.668 0.9-2.686-0.9 0.036 2.806-1.696 2.284 2.718 0.844 1.624 2.314 1.624-2.314 2.704-0.844-1.678-2.284zM1364.962 449.234l0.036-2.824-2.686 0.902-2.682-0.902 0.036 2.824-1.7 2.262 2.702 0.848 1.644 2.296 1.624-2.296 2.692-0.848-1.666-2.262zM1357.138 456.916l0.036-2.84-2.666 0.902-2.682-0.884 0.014 2.824-1.678 2.264 2.688 0.846 1.658 2.296 1.624-2.296 2.682-0.846-1.676-2.266zM1350.958 451.496l-1.682-2.262v-2.824l-2.666 0.902-2.668-0.902 0.042 2.824-1.702 2.262 2.704 0.848 1.624 2.296 1.642-2.296 2.706-0.848zM1343.1 443.816l-1.708-2.282 0.046-2.808-2.68 0.902-2.69-0.902 0.036 2.808-1.692 2.282 2.684 0.844 1.662 2.316 1.624-2.316 2.718-0.844zM1335.208 436.128l-1.682-2.258 0.038-2.844-2.688 0.918-2.684-0.918 0.038 2.844-1.7 2.258 2.706 0.854 1.64 2.294 1.626-2.294 2.706-0.854zM1327.346 428.454l-1.694-2.262 0.036-2.828-2.686 0.902-2.684-0.902 0.036 2.828-1.676 2.262 2.706 0.844 1.622 2.292 1.64-2.292 2.7-0.844zM1319.47 420.786l-1.7-2.278 0.038-2.824-2.682 0.9-2.668-0.9 0.038 2.824-1.68 2.278 2.668 0.828 1.64 2.312 1.658-2.312 2.688-0.828zM1311.59 413.104l-1.692-2.26 0.036-2.844-2.668 0.902-2.666-0.902v2.844l-1.676 2.26 2.7 0.846 1.642 2.3 1.626-2.3 2.698-0.846zM1410.168 413.442c0-0.39-0.17-0.906-0.26-1.364l-55.436 54.272-55.38-54.216c-0.070 0.44-0.246 0.938-0.246 1.308 0 0.316 0.084 0.528 0.106 0.832l55.524 54.388 55.596-54.448c0.012-0.28 0.096-0.478 0.096-0.772zM1285.244 478.904c-1.006 3.338 4.33 5.19 6.254 5.19 5.508 0 11.936-6.512 11.936-14.478 0-4.806-1.942-6.728-1.942-6.728s0.458 3.46 0.458 5.19c0 7.418-5.264 11.338-7.876 12.772-2.716 1.462-3.146-0.196-1.252-1.096 4.89-2.314 8.828-8.814 7.594-14.622 0-0.71-0.78-0.92-0.78 1.218 0 12.784-12.624 13.102-14.392 12.554zM1418.896 423.738c0-25.7-20.892-37.142-34.822-41.332-2.866-0.86-20.436-3.868-29.566-12.32-9.13 8.454-26.736 11.46-29.562 12.32-13.954 4.19-34.862 15.632-34.862 41.332 0 15.8 6.516 28.164 12.558 28.164 2.556 0 1.746-3.144 0.296-5.262-0.848-1.214-1.858-3.32 0.458-2.86 2.33 0.468 5.442-0.302 5.442-2.406 0-0.992-1.342-0.992-2.014-0.62-0.71 0.39-1.624 0.708-2.95 0.708-2.56 0-5.336-1.624-5.336-3.48 0-1.868 3.55-1.094 3.55-2.562 0-1-8.512-7.042-8.512-14.162 0-2.236 0.918-1.392 1.466 0 0.542 1.384 2.014 3.252 3.4 3.252 1.418 0 2.162-0.55 1.558-1.692-0.62-1.166-2.948-4.738-2.948-9.684 0-4.96 3.65-11.458 6.038-14.39 1.184-1.446 1.556-0.546 1.782 0 0.25 0.528 0.78 2.246 1.948 2.246 2.014 0 0.778-9.61 22.816-15.492 4.396-1.164 15.578-3.938 24.866-11.074 9.292 7.136 20.454 9.91 24.85 11.074 22.052 5.882 20.818 15.492 22.83 15.492 1.166 0 1.7-1.718 1.946-2.246 0.208-0.546 0.606-1.446 1.77 0 2.4 2.932 6.036 9.43 6.036 14.39 0 4.946-2.33 8.518-2.928 9.684-0.636 1.14 0.14 1.692 1.552 1.692 1.376 0 2.842-1.868 3.388-3.252 0.536-1.392 1.486-2.236 1.486 0 0 7.12-8.512 13.162-8.512 14.162 0 1.468 3.564 0.696 3.564 2.562 0 1.86-2.826 3.48-5.37 3.48-1.306 0-2.246-0.316-2.936-0.708-0.704-0.374-2.012-0.374-2.012 0.62 0 2.104 3.108 2.876 5.422 2.406 2.316-0.46 1.328 1.642 0.444 2.86-1.446 2.118-2.224 5.262 0.33 5.262 6.052 0 12.534-12.36 12.534-28.164zM1409.376 466.35c0-2.138-0.776-1.928-0.776-1.218-1.256 5.808 2.702 12.308 7.572 14.622 1.908 0.9 1.466 2.56-1.234 1.096-2.612-1.434-7.894-5.354-7.894-12.772 0-1.728 0.476-5.19 0.476-5.19s-1.944 1.922-1.944 6.728c0 7.964 6.426 14.478 11.9 14.478 1.944 0 7.278-1.852 6.29-5.19-1.794 0.548-14.39 0.23-14.39-12.554zM1376.018 416.602c-3.748 0-6.78-3.042-6.78-6.782 0-2.188-1.152-3.072-3.042-3.072-3.386 0-4.042 1.764-6.3 1.764-1.698 0-2.282-1.644-3.518-1.644-1.2 0-1.586 2.082-3.194 2.082-1.592 0-1.962-2.082-3.2-2.082s-1.802 1.644-3.494 1.644c-2.26 0-2.26-1.764-5.652-1.764h-21.228v-3.656h2.898v-11.426h6.218v4.412h3.086v-4.412h6.184v11.426h2.842c3.392 0 3.392-1.736 5.652-1.736 1.692 0 2.258 1.736 3.494 1.736 1.234 0 1.608-2.158 3.2-2.158 1.608 0 1.994 2.158 3.194 2.158 1.236 0 1.82-1.736 3.518-1.736 2.26 0 2.914 1.736 6.3 1.736 1.888 0 3.042-0.83 3.042-3.018 0-3.75 3.032-6.786 6.78-6.786 3.746 0 6.784 3.036 6.784 6.786v9.746c-0.004 3.738-3.038 6.782-6.784 6.782zM1336.138 393.516h-2.47v4.418h-6.814v-4.418h-2.472v9.576h11.76l-0.004-9.576zM1380.096 399.7c0-2.22-1.818-4.042-4.042-4.042-2.264 0-4.064 1.82-4.064 4.042 0 3.606 1.504 5.242 1.504 5.242s-1.504 1.668-1.504 5.23c0 2.246 1.8 4.064 4.064 4.064 2.222 0 4.042-1.818 4.042-4.064 0-3.562-1.502-5.23-1.502-5.23s1.502-1.642 1.502-5.242zM1325.722 520.228v-16.668h-3.638v12.732h-1.378l1.7 3.936h3.316zM1341.192 521.288c-3.92 0-7.080-2.77-7.080-6.212 0-3.446 3.16-6.218 7.080-6.218 1.588 0 3.042 0.442 4.24 1.22-2.208-5.598-8.020-3.34-9.236-2.878l-1.572-3.072c1.91-1.892 14.64-3.144 14.64 9.004 0 1.412-1.024 8.156-8.072 8.156zM1341.192 511.86c-2.030 0-3.67 1.448-3.67 3.214 0 1.764 1.64 3.214 3.67 3.214 2.014 0 4.042-1.45 4.042-3.214 0-1.768-2.028-3.214-4.042-3.214zM1360.374 502.798c-3.784 0-6.006 1.662-6.604 2.42l2.19 2.208c0.982-0.622 2.736-1.68 3.956-1.68 1.2 0 3.41 0.548 3.41 2.42 0 0.918-0.852 2.434-4.37 1.978v2.878c3.68-0.3 4.598 1.006 4.598 2.244 0 1.234-1.378 2.222-3.040 2.222-1.292 0-2.582-0.758-3.64-1.958l-2.468 2.434c1.116 1.678 3.354 2.826 5.968 2.826 3.634 0 6.394-2.276 6.394-5.084 0-1.486-0.606-2.826-1.93-3.762 1.43-0.81 2.036-2.632 2.036-3.78 0-2.804-2.514-5.366-6.5-5.366zM1378.382 502.798c-3.778 0-5.966 1.662-6.584 2.42l2.204 2.208c0.974-0.622 2.724-1.68 3.938-1.68 1.22 0 3.41 0.548 3.41 2.42 0 0.918-0.848 2.434-4.364 1.978v2.878c3.692-0.3 4.596 1.006 4.596 2.244 0 1.234-1.362 2.222-3.038 2.222-1.292 0-2.562-0.758-3.638-1.958l-2.44 2.434c1.078 1.678 3.316 2.826 5.916 2.826 3.678 0 6.412-2.276 6.412-5.084 0-1.486-0.58-2.826-1.928-3.762 1.454-0.81 2.048-2.632 2.048-3.78 0.004-2.804-2.502-5.366-6.532-5.366zM196.82 601.078v-91.428h155.976v-120.424h-155.976v-214.728h-142.196v546.984h314.134v-120.404h-171.938zM597.106 721.5h-201.66v-547.002h201.66c151.644 0 277.864 119.698 277.864 273.502-0.004 153.802-125.496 273.5-277.864 273.5zM569.554 294.938h-31.93v306.14h33.378c91.408 0 155.972-55.134 155.972-153.078 0-106.65-72.544-153.062-157.42-153.062zM895.192 721.5h142.2v-547.002h-142.2v547.002zM1475.318 537.96c-29.014 39.168-76.168 60.202-124.766 60.202-87.064 0-145.82-66.738-145.82-151.63 0-86.304 59.474-148.694 147.974-148.694 46.444 0 92.856 22.476 122.612 58.026v-170.472c-47.168-14.528-81.252-25.392-125.508-25.392-76.148 0-148.716 29-205.296 80.512-60.222 54.414-87.79 125.508-87.79 206.766 0 74.702 28.308 146.54 80.532 200.228 53.684 55.116 131.32 88.494 208.21 88.494 45.704 0 87.77-10.156 129.852-27.566v-170.474z" />
<glyph unicode="&#xe91d;" glyph-name="link-external" d="M832 768h-533.332l160-160.044-266.668-266.562 213.332-213.394 266.498 266.74 160.17-160.21z" />
<glyph unicode="&#xe91e;" glyph-name="lock" d="M768 512v64c0 141.384-114.616 256-256 256-141.382 0-256-114.616-256-256v-64h-64v-384h640v384h-64zM576 224h-128l25.6 76.8c-15.542 11.676-25.6 30.262-25.6 51.2 0 35.346 28.654 64 64 64s64-28.654 64-64c0-20.938-10.056-39.524-25.6-51.2l25.6-76.8zM640 512h-256v64c0 70.58 57.42 128 128 128s128-57.42 128-128v-64z" />
<glyph unicode="&#xe91f;" glyph-name="map-marker" d="M512 0c-6 0-12 1.8-17 5.6-13.4 9.8-329.8 243.4-329.8 543.6 0 188 158.8 346.8 346.8 346.8s346.8-158.8 346.8-346.8c0-300.2-316.4-533.8-329.8-543.6-5-3.8-11-5.6-17-5.6zM512 838.2c-156.6 0-289-132.4-289-289 0-233.6 224.6-431.6 289-483.6 64.4 52 289 250.6 289 483.6 0 156.6-132.4 289-289 289zM512 332.4c-119.6 0-216.8 97.2-216.8 216.8s97.2 216.8 216.8 216.8 216.8-97.2 216.8-216.8-97.2-216.8-216.8-216.8zM512 708.2c-87.6 0-159-71.4-159-159s71.4-159 159-159 159 71.4 159 159-71.4 159-159 159z" />
<glyph unicode="&#xe920;" glyph-name="nav-sub" d="M896.006 670.6c0-16.798-13.802-30.8-30.8-30.8h-514.408c-16.802 0-30.8 13.802-30.8 30.8v66.602c0 16.798 13.802 30.796 30.8 30.796h514.604c16.8 0 30.8-13.798 30.8-30.796l-0.196-66.602zM896.006 225.4c0 16.794-13.802 30.798-30.8 30.798h-514.408c-16.802 0-30.8-13.8-30.8-30.798v-66.608c0-16.794 13.802-30.792 30.8-30.792h514.604c16.8 0 30.8 13.8 30.8 30.792l-0.196 66.608zM896.006 481.202c0 16.798-13.802 30.798-30.8 30.798h-514.408c-16.802 0-30.8-13.798-30.8-30.798v-66.604c0-16.8 13.802-30.8 30.8-30.8h514.604c16.8 0 30.8 13.804 30.8 30.8l-0.196 66.604zM255.796 670.6c0-16.798-13.796-30.8-30.8-30.8h-66.202c-16.794 0-30.798 13.802-30.798 30.8v66.602c0 16.798 13.8 30.796 30.798 30.796h66.406c16.8 0 30.8-13.798 30.8-30.796l-0.204-66.602zM255.796 158.792c0-16.794-13.796-30.792-30.8-30.792h-66.202c-16.794 0-30.798 13.8-30.798 30.792v66.608c0 16.794 13.8 30.798 30.798 30.798h66.406c16.8 0 30.8-13.8 30.8-30.798l-0.204-66.608zM255.796 414.8c0-16.8-13.796-30.8-30.8-30.8h-66.202c-16.794 0-30.798 13.796-30.798 30.8v66.6c0 16.798 13.8 30.8 30.798 30.8h66.406c16.8 0 30.8-13.802 30.8-30.8l-0.204-66.6z" />
<glyph unicode="&#xe921;" glyph-name="nav" d="M896 670.6c0-16.8-13.8-30.8-30.8-30.8h-706.4c-16.8 0-30.8 13.8-30.8 30.8v66.6c0 16.8 13.8 30.8 30.8 30.8h706.6c16.8 0 30.8-13.8 30.8-30.8v-66.6zM896 225.4c0 16.8-13.8 30.8-30.8 30.8h-706.4c-16.8 0-30.8-13.8-30.8-30.8v-66.6c0-16.8 13.8-30.8 30.8-30.8h706.6c16.8 0 30.8 13.8 30.8 30.8v66.6zM896 481.2c0 16.8-13.8 30.8-30.8 30.8h-706.4c-16.8 0-30.8-13.8-30.8-30.8v-66.6c0-16.8 13.8-30.8 30.8-30.8h706.6c16.8 0 30.8 13.8 30.8 30.8v66.6z" />
<glyph unicode="&#xe922;" glyph-name="print" d="M768 512v256h-512v-256h-128v-256h128v-128h512v128h128v256h-128zM704 192h-384v128h384v-128zM832 384h-128v64h128v-64z" />
<glyph unicode="&#xe923;" glyph-name="search" d="M893.6 107.2l-209.6 209.8c46 55.2 73.8 126 73.8 203.4 0 175.4-142.6 318-318 318s-318-142.6-318-318 142.6-318 318-318c77.2 0 148.2 27.8 203.2 73.8l209.8-209.8c5.6-5.6 13-8.4 20.4-8.4s14.8 2.8 20.4 8.4c11.4 11.2 11.4 29.4 0 40.8zM179.6 520.2c0 143.4 116.6 260.2 260.2 260.2s260.2-116.8 260.2-260.2-116.8-260.2-260.2-260.2-260.2 116.8-260.2 260.2z" />
<glyph unicode="&#xe924;" glyph-name="social-facebook" d="M854.6 896h-689.2c-57.2 0-103.4-46.2-103.4-103.4v-689.2c0-57.2 46.2-103.4 103.4-103.4h377.2v347h-116.8v135.2h116.8v99.8c0 115.8 70.6 178.8 174 178.8 49.4 0 92-3.6 104.4-5.4v-121h-71.6c-56.2 0-67-26.6-67-65.8v-86.4h134l-17.4-135.2h-116.4v-347h172.4c57 0 103.4 46.2 103.4 103.4v689.2c-0.4 57.2-46.6 103.4-103.8 103.4z" />
<glyph unicode="&#xe925;" glyph-name="social-google-plus" d="M854.446 896h-688.892c-57.174 0-103.354-46.2-103.354-103.4v-689.2c0-57.204 46.18-103.4 103.354-103.4h689.292c56.974 0 103.354 46.2 103.354 103.4v689.2c-0.4 57.2-46.578 103.4-103.754 103.4zM409.6 268.8c-99.076 0-179.2 80.124-179.2 179.2s80.124 179.202 179.2 179.202c48.386 0 88.824-17.664 120.050-46.85l-48.624-46.85c-13.312 12.798-36.61 27.65-71.424 27.65-61.188 0-111.098-50.686-111.098-113.15 0-62.474 49.912-113.15 111.098-113.15 70.914 0 97.538 50.952 101.636 77.3h-101.638v61.448h169.2c1.548-8.964 2.852-17.926 2.852-29.7 0-102.398-68.624-175.1-172.052-175.1zM793.598 422.402h-51.198v-51.202h-51.2v51.202h-51.2v51.198h51.202v51.198h51.2v-51.198h51.198v-51.198z" />
<glyph unicode="&#xe926;" glyph-name="social-linkedin" d="M854.446 896h-688.892c-57.174 0-103.354-46.2-103.354-103.4v-689.2c0-57.202 46.18-103.4 103.354-103.4h689.292c56.974 0 103.354 46.2 103.354 103.4v689.2c-0.4 57.2-46.578 103.4-103.754 103.4zM329.734 132.49h-132.894v427.596h132.894v-427.596zM263.314 618.54c-42.588 0-77.064 34.536-77.064 77.076 0 42.5 34.476 77.028 77.064 77.028 42.492 0 77.018-34.528 77.018-77.028 0-42.54-34.526-77.076-77.018-77.076zM827.494 132.49h-132.804v207.94c0 49.608-0.912 113.388-69.056 113.388-69.16 0-79.752-54.022-79.752-109.796v-211.532h-132.796v427.596h127.486v-58.422h1.77c17.73 33.618 61.084 69.064 125.736 69.064 134.572 0 159.418-88.564 159.418-203.69v-234.548z" />
<glyph unicode="&#xe927;" glyph-name="social-twitter" d="M995.71 815.822c-40.594-24.078-85.556-41.56-133.41-50.98-38.32 40.83-92.92 66.34-153.346 66.34-116.020 0-210.086-94.060-210.086-210.080 0-16.466 1.854-32.5 5.44-47.878-174.604 8.762-329.404 92.4-433.020 219.506-18.084-31.028-28.444-67.116-28.444-105.618 0-72.888 37.084-137.19 93.46-174.864-34.44 1.092-66.834 10.542-95.156 26.278-0.020-0.878-0.020-1.754-0.020-2.642 0-101.788 72.414-186.694 168.52-206-17.626-4.8-36.186-7.37-55.346-7.37-13.54 0-26.7 1.32-39.53 3.77 26.736-83.46 104.32-144.204 196.254-145.894-71.9-56.35-162.484-89.934-260.914-89.934-16.96 0-33.68 0.994-50.116 2.94 92.97-59.61 203.4-94.394 322.040-94.394 386.426 0 597.74 320.124 597.74 597.746 0 9.108-0.204 18.168-0.61 27.18 41.050 29.62 76.664 66.62 104.83 108.75-37.674-16.71-78.164-28.002-120.66-33.080 43.374 25.996 76.688 67.166 92.374 116.224z" />
<glyph unicode="&#xe928;" glyph-name="social-youtube-play-btn" horiz-adv-x="1340" d="M1205.076 666.316c0 0-10.688 75.248-43.436 108.386-41.494 43.484-88.054 43.696-109.394 46.244-152.796 11.054-382.004 11.054-382.004 11.054h-0.484c0 0-229.198 0-382.004-11.052-21.344-2.548-67.872-2.76-109.402-46.244-32.748-33.14-43.4-108.386-43.4-108.386s-10.916-88.366-10.916-176.73v-82.84c0-88.354 10.916-176.718 10.916-176.718s10.652-75.246 43.4-108.388c41.53-43.492 96.088-42.106 120.392-46.668 87.364-8.378 371.254-10.974 371.254-10.974s229.452 0.342 382.248 11.384c21.34 2.546 67.902 2.762 109.394 46.254 32.746 33.142 43.436 108.388 43.436 108.388s10.888 88.366 10.888 176.718v82.84c0 88.366-10.888 176.732-10.888 176.732zM557.276 306.366l-0.048 306.8 295.034-153.932-294.986-152.868z" />
<glyph unicode="&#xe929;" glyph-name="social-youtube" horiz-adv-x="2496" d="M936.944 131.332h-93.044v53.872c-35.292-40.434-65.192-60.852-97.796-60.852-28.594 0-48.468 13.468-58.398 37.866-6.040 14.822-10.344 37.97-10.344 71.966v391.816h93.050v-401.622c2.18-13.738 8.020-18.758 19.848-18.758 17.814 0 33.926 15.48 53.64 43.264v377.116h93.044v-494.668zM608.784 288.052c0-52.56-8.65-88.888-27.406-113.634-24.792-33.722-65.626-51.584-104.824-51.584-39.18 0-79.308 17.862-104.072 51.584-19.058 24.746-28.156 61.074-28.156 113.634l0.080 175.89c0 52.864 10.222 92.994 29.298 117.964 24.754 33.836 58.518 47.686 102.85 47.686 39.198 0 78.066-13.85 102.868-47.686 18.764-24.97 29.364-64.668 29.364-117.532l-0.002-176.322zM515.782 474.168c4.904 48.98-10.32 71.922-39.228 71.922-28.89 0-44.066-22.942-39.18-71.922v-195.908c-4.886-48.98 10.274-73.264 39.18-73.264 28.892 0 44.086 24.284 39.198 73.264l0.030 195.908zM363.91 792.512h-102.85l-68.392-257.99-68.742 257.99h-102.852c20.944-61.554 122.454-391.816 122.454-391.816v-269.366h97.938v269.366l122.444 391.816zM1894.054 547.32c-14.604 0-31.344-7.7-46.154-22.334l-0.112-297.036c14.858-14.822 31.662-22.334 46.266-22.334 25.558 0 37.112 18.774 37.112 67.736v210.608c0 48.982-11.55 63.36-37.112 63.36zM2259.302 488.45c0 45.244-11.696 58.87-41.088 58.87-29.622 0-42.16-12.494-42.16-58.264v-54.188l83.248 0.114v53.468zM2474.926 503.452v-110.456c0-117.804-14.62-235.624-14.62-235.624s-14.284-100.324-58.132-144.498c-55.612-58.008-117.964-58.292-146.544-61.682-204.632-14.73-511.968-15.192-511.968-15.192s-380.218 3.466-497.222 14.65c-32.536 6.070-105.628 4.214-161.266 62.224-43.844 44.172-58.104 144.496-58.104 144.496s-14.642 117.818-14.642 235.624v110.456c0 117.836 14.642 235.638 14.642 235.638s14.26 100.328 58.104 144.516c55.634 57.976 117.948 58.264 146.542 61.666 204.66 14.73 511.642 14.73 511.642 14.73h0.64c0 0 307 0 511.63-14.73 28.578-3.402 90.934-3.69 146.542-61.666 43.852-44.188 58.132-144.516 58.132-144.516s14.624-117.8 14.624-235.636zM1333.65 694.566h107.754v93.058l-308.542-0.112v-92.946h102.852v-563.234h97.94l-0.004 563.234zM1686.278 621.080h-93.042v-372.2c-19.714-27.784-35.818-43.264-53.63-43.264-11.838 0-17.67 5.020-19.858 18.756v396.708h-93.042v-386.896c0-33.996 4.284-57.144 10.354-71.966 9.92-24.394 29.78-37.866 58.388-37.866 32.59 0 62.496 20.418 97.79 60.852v-53.872h93.042v489.748zM2024.224 474.168c0 46.362-5.948 78.042-11.874 97.738-11.82 36.648-35.562 57.048-70.868 57.048-32.606 0-65.068-20.066-93.696-55.308l0.114 213.994h-88.168v-656.308h88.168l0.126 49.316c29.634-36.664 61.922-55.624 93.458-55.624 35.302 0 61.106 18.898 72.946 55.306 5.91 20.72 9.792 52.67 9.792 97.93v195.908zM2176.054 273.562v87.96h176.48l-0.016 100.118c0 52.288-10.304 90.566-28.852 115.328-24.844 33.484-60.148 51.218-104.64 51.218-45.258 0-80.562-17.734-106.206-51.218-18.854-24.762-29.81-65.196-29.81-117.5v-171.416c0-52 12.062-88.408 30.896-112.898 25.638-33.438 60.948-50.13 107.324-50.13 46.33 0 82.718 17.508 107.244 53.042 10.782 15.688 17.746 33.484 20.732 53.13 0.8 8.882 3.148 29.112 3.148 57.672v13.882h-93.058c0-35.578 0.176-56.728-0.654-61.552-5.062-23.708-17.78-35.578-39.62-35.578-30.426 0-43.286 22.748-42.968 67.942z" />
<glyph unicode="&#xe92a;" glyph-name="video-play-arrow" d="M256 832l640-384-640-384v768z" />
<glyph unicode="&#xe92b;" glyph-name="video-play-circle" d="M512 896c-247.4 0-448-200.6-448-448s200.6-448 448-448c247.4 0 448 200.6 448 448s-200.6 448-448 448zM388.8 235.2v425.6l358.2-212.8-358.2-212.8z" />
<glyph unicode="&#xe92c;" glyph-name="video-play-screen-lg" d="M832 736h-640c-35.346 0-64-28.654-64-64v-448c0-35.346 28.654-64 64-64h640c35.346 0 64 28.654 64 64v448c0 35.346-28.654 64-64 64zM832 224h-640v448h640v-448zM640 448l-224-112v224l224-112z" />
<glyph unicode="&#xe92d;" glyph-name="video-play-screen" d="M832 736h-640c-35.346 0-64-28.654-64-64v-448c0-35.346 28.654-64 64-64h640c35.346 0 64 28.654 64 64v448c0 35.346-28.654 64-64 64zM832 224h-640v448h640v-448zM640 448l-224-112v224l224-112z" />
<glyph unicode="&#xe92e;" glyph-name="dollar-sign" d="M829 764.8c-84.8 84.6-197.2 131.2-316.8 131.2-119.8 0-232.2-46.6-316.8-131.2-84.8-84.6-131.4-197.2-131.4-316.8s46.6-232.2 131.2-316.8c84.6-84.6 197.2-131.2 316.8-131.2 119.8 0 232.2 46.6 317 131.2 174.6 174.8 174.6 459 0 633.6zM788.4 172.2c-73.8-73.6-172-114.2-276.2-114.2s-202.4 40.4-276.2 114c-73.6 73.6-114.2 171.6-114.2 276 0 104.2 40.6 202.2 114.4 276 73.6 73.6 171.6 114.2 276 114.2 104.2 0 202.2-40.6 276-114.2 152.2-152.2 152.2-399.8 0.2-551.8zM540 473v136.4c27-10.4 46-35.2 46-64.2 0-15.4 12.6-28 28-28s28 12.6 28 28c0 59.8-43.8 110-102 122.4v33.4c0 15.4-12.6 28-28 28s-28-12.6-28-28v-33.4c-58.2-12.4-102-62.6-102-122.4s43.8-110 102-122.4v-136.4c-27 10.4-46 35.2-46 64.2 0 15.4-12.6 28-28 28s-28-12.6-28-28c0-59.8 43.8-110 102-122.4v-33.4c0-15.4 12.6-28 28-28s28 12.6 28 28v33.4c58.2 12.4 102 62.6 102 122.4 0 60-43.8 110-102 122.4zM438 545.4c0 29 19 53.8 46 64.2v-128.2c-27 10.2-46 35-46 64zM540 286.6v128.2c27-10.4 46-35.2 46-64.2 0-28.8-19-53.6-46-64z" />
</font>
</defs>
</svg>
